Здравствуйте Гость ( Вход | Регистрация )

Ответить | Новая тема | Создать опрос

> О сроках выхода четвертой части и второго диска

Shibuya Yuuri >>>
post #21, отправлено 29-12-2009, 2:07


Рыцарь
***

Сообщений: 117
Откуда: Храм Паладайна
Пол:женский

Харизма: 7

УРРРАААААААА!!!!!!!!!!!!!!!!!!!!!! Спасибо огромнейшеее!!!!!!


--------------------
Берегите любовь, для неё нет преград,
Только гнев её в нас убивает,
Без неё и душа, как прекрасный цветок
Без дождя в знойный день погибает.
Скопировать выделенный текст в форму быстрого ответа +Перейти в начало страницы
Lex Matrix >>>
post #22, отправлено 29-12-2009, 2:09


Приключенец
*

Сообщений: 5
Пол:

Харизма: нет

ура-ура!!!! Завтра кину денег на телефон и будет мне счастье!!!!
А когда выйдет 2 диск и реально его будет найти на Украине и будет ли издание содержащее все 4 части?

Сообщение отредактировал Lex Matrix - 29-12-2009, 2:09
Скопировать выделенный текст в форму быстрого ответа +Перейти в начало страницы
Modus >>>
post #23, отправлено 29-12-2009, 2:16


Рыцарь
***

Сообщений: 151
Пол:

Харизма: 13

Желания рыдать не возникло.
Это было скорее смешно.
Сюрприз, блин.
Повеселили к Новому Году.

Сообщение отредактировал Modus - 29-12-2009, 2:16
Скопировать выделенный текст в форму быстрого ответа +Перейти в начало страницы
Lex Matrix >>>
post #24, отправлено 29-12-2009, 2:20


Приключенец
*

Сообщений: 5
Пол:

Харизма: нет

Modus
ты уже скачал и послушал чтоль, что так говоришь?
Скопировать выделенный текст в форму быстрого ответа +Перейти в начало страницы
Саруман-друг Рейстлина >>>
post #25, отправлено 29-12-2009, 2:25


Младшее Божество
*****
Модератор
Сообщений: 792
Откуда: Москва
Пол:мужской

Харизма: 350

Ну,Модус у нас заглавный критик. Развернуто, Модус! И в отдельной теме, плиз!
***
про "рыдать" это я конечно, шутил.


--------------------
Ужели гений и злодейство- несовместны?
Скопировать выделенный текст в форму быстрого ответа +Перейти в начало страницы
Shibuya Yuuri >>>
post #26, отправлено 29-12-2009, 2:27


Рыцарь
***

Сообщений: 117
Откуда: Храм Паладайна
Пол:женский

Харизма: 7

Цитата
Желания рыдать не возникло.
Это было скорее смешно.
Сюрприз, блин.
Повеселили к Новому Году.

настораживает как-то...


--------------------
Берегите любовь, для неё нет преград,
Только гнев её в нас убивает,
Без неё и душа, как прекрасный цветок
Без дождя в знойный день погибает.
Скопировать выделенный текст в форму быстрого ответа +Перейти в начало страницы
Саруман-друг Рейстлина >>>
post #27, отправлено 29-12-2009, 2:37


Младшее Божество
*****
Модератор
Сообщений: 792
Откуда: Москва
Пол:мужской

Харизма: 350

Да,точно. И меня.


--------------------
Ужели гений и злодейство- несовместны?
Скопировать выделенный текст в форму быстрого ответа +Перейти в начало страницы
Ренье
post #28, отправлено 29-12-2009, 2:37


Unregistered






*аплодирует*
действительно потрясающе.
Скопировать выделенный текст в форму быстрого ответа +Перейти в начало страницы
Тазисса >>>
post #29, отправлено 29-12-2009, 5:26


Воин
**

Сообщений: 35
Откуда: Далёкая Сибирь, Ангарск
Пол:женский

Харизма: 33

Спасибо Вам огромное, за труд и такую работу перед новым годом!!!

Только вот что расстроило, уже во второй раз, к слову, в СМС-ключе не присутствует оператор МегаФон. То-есть это опять носиться ранним утром по городу в поисках друзей, у которых что-нибудь другое из операторов.
Но думаю оно того стоит)

Сообщение отредактировал Sararegi - 29-12-2009, 5:37


--------------------
"Склоняй почтительно голову, но никогда не сгибай рабски спину!"
Скопировать выделенный текст в форму быстрого ответа +Перейти в начало страницы
Faraon >>>
post #30, отправлено 29-12-2009, 7:37


Герой Копья
****

Сообщений: 238
Откуда: Новосибирск
Пол:мужской

Харизма: 77
Замечаний: 1

Антон, Елена - огромное спасибо за такой замечательный подарок к днюхе!!!!!!!!!!! 25_coolguy.gif


--------------------
- Молчи, сестра! Тёмен разум твой!
- О Паладайн, глаза ему открой!
- Я призван зло истребить огнём!
- Слепец! Ты первый погибнешь в нём!

© "Последнее Испытание"
Скопировать выделенный текст в форму быстрого ответа +Перейти в начало страницы
SolitaryReaper >>>
post #31, отправлено 29-12-2009, 9:05


Приключенец
*

Сообщений: 4
Пол:

Харизма: 1

а либретто?
Скопировать выделенный текст в форму быстрого ответа +Перейти в начало страницы
Елена Ханпира >>>
post #32, отправлено 29-12-2009, 9:45


Герой Копья
****

Сообщений: 482
Пол:

Харизма: 112

Либретто в следующем году smile.gif Поскольку чуть не до последнего дня утрясалось, в каком виде будет представлен фнал, гоового либретто пока нет.
Скопировать выделенный текст в форму быстрого ответа +Перейти в начало страницы
Discordia >>>
post #33, отправлено 29-12-2009, 10:01


Приключенец
*

Сообщений: 5
Пол:

Харизма: нет

Скажите а Utel оператора не будет sad.gif?
Раньше вроде был, сейчас плановая смена симки произошла и... облом. Если нет пойду на теле-2 деньги класть smile.gif.

Сообщение отредактировал Discordia - 29-12-2009, 10:13
Скопировать выделенный текст в форму быстрого ответа +Перейти в начало страницы
Atanvarno >>>
post #34, отправлено 29-12-2009, 10:47


Воин
**

Сообщений: 51
Пол:

Харизма: 1

По-быстрому навалял cue-шку.
В общем и целом вроде правильно. Каждый может поправить по-своему.
Цитата
TITLE "4. Последнее испытание"
PERFORMER "Последнее испытание"
FILE "IBScene4.mp3" MP3
TRACK 01 AUDIO
  TITLE "Пролог1"
  PERFORMER "Последнее испытание"
  INDEX 01 00:00:00
TRACK 02 AUDIO
  TITLE "Встреча с Такхизис"
  PERFORMER "Последнее испытание"
  INDEX 01 00:25:00
TRACK 03 AUDIO
  TITLE "Пролог2"
  PERFORMER "Последнее испытание"
  INDEX 01 05:19:00
TRACK 04 AUDIO
  TITLE "Изида под покрывалом"
  PERFORMER "Последнее испытание"
  INDEX 01 06:04:00
TRACK 05 AUDIO
  TITLE "Кошмары"
  PERFORMER "Последнее испытание"
  INDEX 01 09:19:00
TRACK 06 AUDIO
  TITLE "Танго смерти"
  PERFORMER "Последнее испытание"
  INDEX 01 12:17:00
TRACK 07 AUDIO
  TITLE "Пролог4"
  PERFORMER "Последнее испытание"
  INDEX 01 14:47:00
TRACK 08 AUDIO
  TITLE "Жертва"
  PERFORMER "Последнее испытание"
  INDEX 01 15:23:00
TRACK 09 AUDIO
  TITLE "Пролог5"
  PERFORMER "Последнее испытание"
  INDEX 01 18:10:00
TRACK 10 AUDIO
  TITLE "Отречение (Легенда Чародея)"
  PERFORMER "Последнее испытание"
  INDEX 01 19:10:00
TRACK 11 AUDIO
  TITLE "Бессмысленно, как всякая жестокость"
  PERFORMER "Последнее испытание"
  INDEX 01 22:22:00
TRACK 12 AUDIO
  TITLE "Пролог 6"
  PERFORMER "Последнее испытание"
  INDEX 01 25:11:00
TRACK 13 AUDIO
  TITLE "Властелин Ничего"
  PERFORMER "Последнее испытание"
  INDEX 01 25:47:00


Сообщение отредактировал Atanvarno - 29-12-2009, 10:48


--------------------
Лишь тот всесилен,
Кто владеет искусством имен.
Кто назвался тот вписал себя в круг,
Кто назвался тот открылся врагу
и уже побежден.
©Последнее Испытание
Скопировать выделенный текст в форму быстрого ответа +Перейти в начало страницы
Modus >>>
post #35, отправлено 29-12-2009, 12:16


Рыцарь
***

Сообщений: 151
Пол:

Харизма: 13

Файл появился где-то в 0:23. Я пас и скачал, как только появился.
Скопировать выделенный текст в форму быстрого ответа +Перейти в начало страницы
Саруман-друг Рейстлина >>>
post #36, отправлено 29-12-2009, 12:58


Младшее Божество
*****
Модератор
Сообщений: 792
Откуда: Москва
Пол:мужской

Харизма: 350

Модус, критику ждем.


--------------------
Ужели гений и злодейство- несовместны?
Скопировать выделенный текст в форму быстрого ответа +Перейти в начало страницы
Modus >>>
post #37, отправлено 29-12-2009, 13:52


Рыцарь
***

Сообщений: 151
Пол:

Харизма: 13

Всё уже сказал ВКонтакте.
Перекопировать?
Скопировать выделенный текст в форму быстрого ответа +Перейти в начало страницы
Siren >>>
post #38, отправлено 29-12-2009, 13:57


Воин
**

Сообщений: 73
Пол:женский

Харизма: 9

Спасибо большое вам!
Вы такие молодцы.


--------------------
Миром правят слова. (с)
Скопировать выделенный текст в форму быстрого ответа +Перейти в начало страницы
BeZzzideinyi >>>
post #39, отправлено 29-12-2009, 14:40


Воин
**

Сообщений: 32
Пол:

Харизма: 3

Ура-ура-ура! Успеваю скачать до поезда! Теперь и дорога будет не такой долгой и нудной!!!
Спасибо огромное!!!
С наступающим Новым Годом и пусть желание творить вас никогда не покидает!!! Успехов, удачи и всего-всего!!! beer.gif


--------------------
Не вечны даже звезды...
Скопировать выделенный текст в форму быстрого ответа +Перейти в начало страницы
SolitaryReaper >>>
post #40, отправлено 29-12-2009, 15:10


Приключенец
*

Сообщений: 4
Пол:

Харизма: 1

PERFORMER "Последнее Испытание"
TITLE "Последнее Испытание"
FILE "IBScene4.mp3" MP3
TRACK 01 AUDIO
TITLE "Встреча с Такхизис"
PERFORMER "Последнее Испытание"
INDEX 01 00:00:00
TRACK 02 AUDIO
TITLE "Изида под Покрывалом"
PERFORMER "Последнее Испытание"
INDEX 01 05:18:73
TRACK 03 AUDIO
TITLE "Кошмары"
PERFORMER "Последнее Испытание"
INDEX 01 09:22:23
TRACK 04 AUDIO
TITLE "Танго со Смертью"
PERFORMER "Последнее Испытание"
INDEX 01 12:17:27
TRACK 05 AUDIO
TITLE "Жертва"
PERFORMER "Последнее Испытание"
INDEX 01 14:51:07
TRACK 06 AUDIO
TITLE "Отречение (Легенда Чародея)"
PERFORMER "Последнее Испытание"
INDEX 01 18:44:38
TRACK 07 AUDIO
TITLE "Бессмысленно, как Всякая Жестокость"
PERFORMER "Последнее Испытание"
INDEX 01 22:22:42
TRACK 08 AUDIO
TITLE "Властелин Ничего"
PERFORMER "Последнее Испытание"
INDEX 01 25:10:67
Скопировать выделенный текст в форму быстрого ответа +Перейти в начало страницы
1 чел. читают эту тему (1 Гостей и 0 Скрытых Пользователей)
0 Пользователей:

Ответить | Опции | Новая тема
 




Текстовая версия Сейчас: 21-03-2023, 14:46
© 2002-2023. Автор сайта: Тсарь. Директор форума: Alaric.