Здравствуйте Гость ( Вход | Регистрация )

Страницы (3) :  1 2 3  > [Все] 
Ответить | Новая тема | Создать опрос

> Режем запись на арии, CUE

Guardian of Terra >>>
post #1, отправлено 1-01-2009, 18:56


Рыцарь
***

Сообщений: 139
Откуда: Москва
Пол:мужской

Харизма: 36

Так, друзья мои красноглазики.
Поскольку пользоваться цельным файлом в 28 минут сложно, я тут написал к нему CUE:
Код:
Код
TITLE "1. Тьма и Свет"
PERFORMER "Последнее испытание"
FILE "IBScene1.mp3" MP3
 TRACK 01 AUDIO
   TITLE "Ария Рейстлина"
   PERFORMER "Последнее испытание"
   INDEX 01 00:00:00
 TRACK 02 AUDIO
   TITLE "Сон Рейстлина"
   PERFORMER "Последнее испытание"
   INDEX 01 03:37:00
 TRACK 03 AUDIO
   TITLE "Ссора братьев"
   PERFORMER "Последнее испытание"
   INDEX 01 06:29:00
 TRACK 04 AUDIO
   TITLE "Молитва Крисании"
   PERFORMER "Последнее испытание"
   INDEX 01 08:56:00
 TRACK 05 AUDIO
   TITLE "Встреча у Астинуса"
   PERFORMER "Последнее испытание"
   INDEX 01 10:31:00
 TRACK 06 AUDIO
   TITLE "Глаза в глаза"
   PERFORMER "Последнее испытание"
   INDEX 01 16:52:00
 TRACK 07 AUDIO
   TITLE "Карамон в Утехе"
   PERFORMER "Последнее испытание"
   INDEX 01 20:43:00
 TRACK 08 AUDIO
   TITLE "Конклав Магов"
   PERFORMER "Последнее испытание"
   INDEX 01 23:14:00


Эта штука может использоваться для разрезания первой части на отдельные арии с помощью специальных программ.
Я лично пользуюсь mp3splt(1) - она, правда, теги кривовато прописывает.

Я руководствовался разделом либретто на официальном сайте. Для себя у меня есть еще развесистый вариант - там 21 дорожка и все арии и треп разделены.
Все мне сообщайте про баги, а особенно - по поводу правильности названий! Еще интересно, не засунул ли я какой-нибудь текст в логически чужую арию, и не попутал ли временные отметки.

Для второй части рано или поздно сделаю такую же.

Сообщение отредактировал Guardian of Terra - 1-01-2009, 22:23
Скопировать выделенный текст в форму быстрого ответа +Перейти в начало страницы
Guardian of Terra >>>
post #2, отправлено 1-01-2009, 22:22


Рыцарь
***

Сообщений: 139
Откуда: Москва
Пол:мужской

Харизма: 36

Код первой части поменял чуток, стал лучше резать.
Если у кого-то картина обратная - пишите.

Вот CUE от второго файла:
Код
TITLE "2. Все во имя веры"
PERFORMER "Последнее испытание"
FILE "IBScene2.mp3" MP3
 TRACK 01 AUDIO
   TITLE "Ария Короля-жреца"
   PERFORMER "Последнее испытание"
   INDEX 01 00:00:00
 TRACK 02 AUDIO
   TITLE "Восторг"
   PERFORMER "Последнее испытание"
   INDEX 01 03:03:00
 TRACK 03 AUDIO
   TITLE "Прокурор"
   PERFORMER "Последнее испытание"
   INDEX 01 04:56:00
 TRACK 04 AUDIO
   TITLE "Спор Крисании и Короля"
   PERFORMER "Последнее испытание"
   INDEX 01 09:32:00
 TRACK 05 AUDIO
   TITLE "О братстве"
   PERFORMER "Последнее испытание"
   INDEX 01 12:33:00
 TRACK 06 AUDIO
   TITLE "Гладиатор"
   PERFORMER "Последнее испытание"
   INDEX 01 16:17:00
 TRACK 07 AUDIO
   TITLE "Арена"
   PERFORMER "Последнее испытание"
   INDEX 01 18:18:00
 TRACK 08 AUDIO
   TITLE "Месса"
   PERFORMER "Последнее испытание"
   INDEX 01 21:00:00
 TRACK 09 AUDIO
   TITLE "Плач Крисании"
   PERFORMER "Последнее испытание"
   INDEX 01 23:20:00
Скопировать выделенный текст в форму быстрого ответа +Перейти в начало страницы
Almajade >>>
post #3, отправлено 2-01-2009, 1:07


Воин
**

Сообщений: 34
Откуда: Рига, Латвия
Пол:женский

Симпатии: 2

А может вы подскажите как ей пользоваться?
Я mp3splt даже установить не могуsad.gif


--------------------
К концу сказки добро победило разум.
Скопировать выделенный текст в форму быстрого ответа +Перейти в начало страницы
Guardian of Terra >>>
post #4, отправлено 2-01-2009, 2:27


Рыцарь
***

Сообщений: 139
Откуда: Москва
Пол:мужской

Харизма: 36

Мой друг-виндовоз подсказал мне, что он пользуется Medieval CUE Splitter
Попробуйте ее выгуглить и воспользовать, натравив на мой код, сохраненный в текстовые файлы, как IBScene1.cue/IBScene2.cue и положенный в один каталог с выкачанными частями в mp3.
Я думаю, оно графическое и более-менее продирабельно-понятное.

К сожалению, понятнее пояснить не могу, ибо сам этой программы не имею.
Скопировать выделенный текст в форму быстрого ответа +Перейти в начало страницы
De'Mulen >>>
post #5, отправлено 2-01-2009, 14:27


Приключенец
*

Сообщений: 17
Откуда: Москва
Пол:мужской

Харизма: 6

я именно так и делал smile.gif всё получилось.
Объясняю подробно для тех, кто в этом ноль, как и я до вчерашнего вечера smile.gif :
1) Качаем и устанавливаем программу Medieval CUE Splitter.
2) Копируем код, который написал Guardian of Terra в текстовый документ.
3) С помощью какого-нибудь файлового менеджера (например Total Commander) меняем расширение файла с .txt на .cue
4) Помещаем этот файл в один каталог со скачанными музыкальными файлами и даём им такое же имя ("IBScene1" и "IBScene2" соответственно)
5) Открываем эти файлы программой Medieval CUE Splitter. Нажимаем "Разрезать".

Готово!

Сообщение отредактировал Тсарь - 2-01-2009, 17:06
Скопировать выделенный текст в форму быстрого ответа +Перейти в начало страницы
Тсарь >>>
post #6, отправлено 2-01-2009, 15:17


падший админ
******
Администратор
Сообщений: 1461
Откуда: six feet under ground
Пол:мужской

Осталось до весны: 1810

De'Mulen

Спасибо!
Действительно, самый простой способ.

Программку Medieval CUE Splitter можно скачать отсюда:
http://www.medieval.it/content/view/28/70/
Скопировать выделенный текст в форму быстрого ответа +Перейти в начало страницы
Guardian of Terra >>>
post #7, отправлено 2-01-2009, 16:19


Рыцарь
***

Сообщений: 139
Откуда: Москва
Пол:мужской

Харизма: 36

De'Mulen:
"меняем расширение файла с .txt на .cuo"
А не на .cue?
Почитать надо про это дело...
Скопировать выделенный текст в форму быстрого ответа +Перейти в начало страницы
De'Mulen >>>
post #8, отправлено 2-01-2009, 17:29


Приключенец
*

Сообщений: 17
Откуда: Москва
Пол:мужской

Харизма: 6

Точно! это я перепутал.
уже всё исправлено smile.gif
Скопировать выделенный текст в форму быстрого ответа +Перейти в начало страницы
Erlina O'Brean >>>
post #9, отправлено 2-01-2009, 17:34


Приключенец
*

Сообщений: 8
Откуда: Road of the sleep...
Пол:женский

* Снежинки *: 6

Спасибо, уже думала сама резать и вдруг тут наткнулась smile.gif

Сообщение отредактировал Erlina O'Brean - 2-01-2009, 17:40


--------------------
Фальшивая ценность пустых откровений
Для всех очевидна, и этим смешна​.
© Канцлер Ги


Маленькое божество... чего ты хочешь?..
Скопировать выделенный текст в форму быстрого ответа +Перейти в начало страницы
Guardian of Terra >>>
post #10, отправлено 2-01-2009, 18:51


Рыцарь
***

Сообщений: 139
Откуда: Москва
Пол:мужской

Харизма: 36

Народ, если где-то активно обсуждают "Последнее искушение" (ЖЖ-сообщества? Форумы?), вы туда смело делайте репост этих CUEв.

Потому что иначе люди будут велосипед изобретать.
Скопировать выделенный текст в форму быстрого ответа +Перейти в начало страницы
Саруман-друг Рейстлина >>>
post #11, отправлено 2-01-2009, 21:03


Младшее Божество
*****
Модератор
Сообщений: 792
Откуда: Москва
Пол:мужской

Харизма: 350

У меня вопрос. После разрезания остается ли в файлах информация, зашитая в основном "большом" (ссылка на сайт,название, прочее)? Если нет, то это плохо.


--------------------
Ужели гений и злодейство- несовместны?
Скопировать выделенный текст в форму быстрого ответа +Перейти в начало страницы
Erlina O'Brean >>>
post #12, отправлено 2-01-2009, 21:52


Приключенец
*

Сообщений: 8
Откуда: Road of the sleep...
Пол:женский

* Снежинки *: 6

ссылки на сайт нет, а смысл если каждый в основном для себя режет? Хотя можно и добавить в тэги... Названия там сохранены + еще при разбивке у трэков официальное название...


--------------------
Фальшивая ценность пустых откровений
Для всех очевидна, и этим смешна​.
© Канцлер Ги


Маленькое божество... чего ты хочешь?..
Скопировать выделенный текст в форму быстрого ответа +Перейти в начало страницы
De'Mulen >>>
post #13, отправлено 2-01-2009, 22:44


Приключенец
*

Сообщений: 17
Откуда: Москва
Пол:мужской

Харизма: 6

а у меня и в основном файле нет тэгов, названия, ссылки на сайт unsure.gif
Скопировать выделенный текст в форму быстрого ответа +Перейти в начало страницы
Guardian of Terra >>>
post #14, отправлено 2-01-2009, 22:57


Рыцарь
***

Сообщений: 139
Откуда: Москва
Пол:мужской

Харизма: 36

А что, в большом файле уже есть какая-то информация?
1ого числа скачивался чистый, как попка младенца.

Кто-нибудь, напишите, какие теги прописаны в файле после скачивания?

В файл прописываются название/исполнитель/альбом/номер дорожки, которые написаны в CUE-файле. У меня прописываются smile.gif
Скопировать выделенный текст в форму быстрого ответа +Перейти в начало страницы
Саруман-друг Рейстлина >>>
post #15, отправлено 2-01-2009, 23:11


Младшее Божество
*****
Модератор
Сообщений: 792
Откуда: Москва
Пол:мужской

Харизма: 350

Там были: ссылка на сайт fantasymusical.ru
название "Последнее Испытание"
и название сцены.
Для нас особенно важна ссылка на сайт, вдруг этот файл окажется рано или поздно (чем поздней тем лучше) в Торрентах, и скачавший его человек все таки придет в итоге на сайт, по зашитой ссылке.


--------------------
Ужели гений и злодейство- несовместны?
Скопировать выделенный текст в форму быстрого ответа +Перейти в начало страницы
Guardian of Terra >>>
post #16, отправлено 2-01-2009, 23:31


Рыцарь
***

Сообщений: 139
Откуда: Москва
Пол:мужской

Харизма: 36

Цитата(Саруман-друг Рейстлина @ 2-01-2009, 22:11)
Там были: ссылка на сайт fantasymusical.ru
название "Последнее Испытание"
и название сцены.
Для нас особенно важна ссылка на сайт, вдруг этот файл окажется рано или поздно (чем поздней тем лучше) в Торрентах, и скачавший его человек все таки придет в итоге на сайт, по зашитой ссылке.
*


А исполнитель какой прописан?
В этих тегах?

Если кто знает, как в CUE ненапряжно прописать ссылку в комментарий, пишите.
Скопировать выделенный текст в форму быстрого ответа +Перейти в начало страницы
De'Mulen >>>
post #17, отправлено 3-01-2009, 0:59


Приключенец
*

Сообщений: 17
Откуда: Москва
Пол:мужской

Харизма: 6

Цитата(Guardian of Terra @ 2-01-2009, 21:57)
1ого числа скачивался чистый, как попка младенца.

подтверждаю smile.gif


Добавлено:
Цитата(Саруман-друг Рейстлина @ 2-01-2009, 22:11)
Для нас особенно важна ссылка на сайт, вдруг этот файл окажется рано или поздно (чем поздней тем лучше) в Торрентах, и скачавший его человек все таки придет в итоге на сайт, по зашитой ссылке.

Антон, можно попробовать распространять ссылку на сайт и информацию о проекте на различных форумах, ресурсах. Могу помочь в этом. Только нужен текстовый анонс и информация о проекте небольшие.

Сообщение отредактировал Саруман-друг Рейстлина - 3-01-2009, 14:17
Скопировать выделенный текст в форму быстрого ответа +Перейти в начало страницы
Almajade >>>
post #18, отправлено 3-01-2009, 1:06


Воин
**

Сообщений: 34
Откуда: Рига, Латвия
Пол:женский

Симпатии: 2

Для меня в ночь с 31 на 1 скачали ту версию, что 96 битрейтная, никаких ссылок в ней не былоsad.gif
Если это просто ссылка на сайт была, то я ее добавлю.


--------------------
К концу сказки добро победило разум.
Скопировать выделенный текст в форму быстрого ответа +Перейти в начало страницы
Саруман-друг Рейстлина >>>
post #19, отправлено 3-01-2009, 16:03


Младшее Божество
*****
Модератор
Сообщений: 792
Откуда: Москва
Пол:мужской

Харизма: 350

Да, к сожалению информации в файлах нет.
Кто б мог подумать, что человек делающий сайт додумается файлы присланные мной немного переименовать, и как следствие убить теги. Ужас. Всегда плохо, когда что-нибудь делается без понимания.


--------------------
Ужели гений и злодейство- несовместны?
Скопировать выделенный текст в форму быстрого ответа +Перейти в начало страницы
Almajade >>>
post #20, отправлено 3-01-2009, 16:44


Воин
**

Сообщений: 34
Откуда: Рига, Латвия
Пол:женский

Симпатии: 2

Кстати, тоже могу записаться добровольцем в распространении информации на других ресурсах, например в блоговых сообществах посвященных Саге о Копье, фэнтези и фэнтезевой музыке.
Только, авторы, скажите приветствуется ли такая самодеятельности, и, если да, то предпочитаете чтобы там были сообщения с каким-то конкретным анасом, или можно просто писать от себя?smile.gif


--------------------
К концу сказки добро победило разум.
Скопировать выделенный текст в форму быстрого ответа +Перейти в начало страницы
Елена Ханпира >>>
post #21, отправлено 3-01-2009, 16:56


Герой Копья
****

Сообщений: 482
Пол:

Харизма: 112

Спасибо за инициативу!
Если хотите какой-то свой текст написать, то, может, просто представите его сначала здесь? и если у нас не будет к нему вопросов, то почему бы и нет.
Только в анонсе обязательно нужно подчеркнуть просьбу честно скачивать с оффсайта.
И, возможно, стоит указать, что это _краткая_ версия, и на сайте будут еще со временем появляться бонусы, не вошедшие в краткую версию. Ну и ссылку на наши с Антоном интервью можно дать, чтобы у людей не возникали вопросы, на которые мы уже отвечали.
Скопировать выделенный текст в форму быстрого ответа +Перейти в начало страницы
El-Paul >>>
post #22, отправлено 4-01-2009, 0:26


Воин
**

Сообщений: 44
Пол:

Харизма: нет

Цитата(Саруман-друг Рейстлина @ 3-01-2009, 15:03)
Да, к сожалению информации в файлах нет.
Кто б мог подумать, что человек делающий сайт додумается файлы присланные мной немного переименовать, и как следствие убить теги. Ужас. Всегда плохо, когда что-нибудь делается без понимания.
*


Тэги добавь обязательно. А людёв надо контролировать, ага smile.gif
Скопировать выделенный текст в форму быстрого ответа +Перейти в начало страницы
Guardian of Terra >>>
post #23, отправлено 4-01-2009, 15:37


Рыцарь
***

Сообщений: 139
Откуда: Москва
Пол:мужской

Харизма: 36

А что в тегах будет написано в графе "исполнитель"?
Скопировать выделенный текст в форму быстрого ответа +Перейти в начало страницы
Milvar >>>
post #24, отправлено 5-01-2009, 13:48


Приключенец
*

Сообщений: 7
Пол:

Харизма: 2

А можно специально для тех, кто в таких вещах не просто "ноль", а уж со знаком "минус": где и как в "Total commander" расширение менять???
Я тоже так хочу, а о таких страшных вещах слышу впервые smile.gif
Скопировать выделенный текст в форму быстрого ответа +Перейти в начало страницы
Guardian of Terra >>>
post #25, отправлено 5-01-2009, 13:51


Рыцарь
***

Сообщений: 139
Откуда: Москва
Пол:мужской

Харизма: 36

Эф Шесть на файле?
Скопировать выделенный текст в форму быстрого ответа +Перейти в начало страницы
De'Mulen >>>
post #26, отправлено 5-01-2009, 14:08


Приключенец
*

Сообщений: 17
Откуда: Москва
Пол:мужской

Харизма: 6

Цитата(Milvar @ 5-01-2009, 12:48)
А можно специально для тех, кто в таких вещах не просто "ноль", а уж со знаком "минус": где и как в "Total commander" расширение менять???
Я тоже так хочу, а о таких страшных вещах слышу впервые smile.gif
*


ну просто переименовываешь файл. разрешение входит в имя файла. после точки.
Скопировать выделенный текст в форму быстрого ответа +Перейти в начало страницы
Milvar >>>
post #27, отправлено 5-01-2009, 14:15


Приключенец
*

Сообщений: 7
Пол:

Харизма: 2

Получилось! Спасибо!!!
Скопировать выделенный текст в форму быстрого ответа +Перейти в начало страницы
Саруман-друг Рейстлина >>>
post #28, отправлено 5-01-2009, 21:21


Младшее Божество
*****
Модератор
Сообщений: 792
Откуда: Москва
Пол:мужской

Харизма: 350

Я проверил, на сервере лежат файлы МР3. Почему они превращаются в другой формат у некоторых при скачивании-не знаю. Файлы заменены на новые, с тегами.


--------------------
Ужели гений и злодейство- несовместны?
Скопировать выделенный текст в форму быстрого ответа +Перейти в начало страницы
Fenrir >>>
post #29, отправлено 6-01-2009, 16:32


Приключенец
*

Сообщений: 10
Откуда: Санкт-Петербург
Пол:женский

Харизма: 1

*озадаченно чешет в затылке* вы знаете... вот буквально только что скачалось - всё равно абсолютно никаких тегов и опять как будто оно - зип. возможно, теги убиваются в процессе "разборок" с расширением?

Сообщение отредактировал Fenrir - 6-01-2009, 19:28


--------------------
Ветер в голове попутным не бывает
Скопировать выделенный текст в форму быстрого ответа +Перейти в начало страницы
Guardian of Terra >>>
post #30, отправлено 6-01-2009, 19:08


Рыцарь
***

Сообщений: 139
Откуда: Москва
Пол:мужской

Харизма: 36

Мне кажется, или в либретто http://fantasymusical.ru/index.php?option=...e&id=3&Itemid=3
во второй части попутаны местами "спор Крисании и Короля" и "Прокурор"?
По сравнению с физическим порядком в файле?
Скопировать выделенный текст в форму быстрого ответа +Перейти в начало страницы
Саруман-друг Рейстлина >>>
post #31, отправлено 6-01-2009, 20:12


Младшее Божество
*****
Модератор
Сообщений: 792
Откуда: Москва
Пол:мужской

Харизма: 350

Нет, не перепутано. Все нормально.
***
Да,теги опять пропали при скачивании.
Причем на сервере лежат файлы с тегами, если их качать Total commander по ФТП теги на месте. Это выше моего знания, ждем специалиста. Файл скачивается с сервера как "архивный", но имеет при этом правильное расширение, и у меня на компе переименования не требует. Может реально положить ZIP? зашить туда еще файл с либретто? Попробуем. Пока что так. Отсутстивие тегов для меня большая проблема.


--------------------
Ужели гений и злодейство- несовместны?
Скопировать выделенный текст в форму быстрого ответа +Перейти в начало страницы
Тсарь >>>
post #32, отправлено 6-01-2009, 20:45


падший админ
******
Администратор
Сообщений: 1461
Откуда: six feet under ground
Пол:мужской

Осталось до весны: 1810

ZIP там похоже потому что файл выдаётся сервером как архив. Некоторые браузеры смотрят на расширение файла (оно mp3) и поэтому после скачивания переименовывать ничего не надо. А например браузер Opera смотрит на то, с каким типом файл выдаётся сервером и автоматически переименовывает файл в ZIP.

А либретто по идее в те же теги можно запихать.
Скопировать выделенный текст в форму быстрого ответа +Перейти в начало страницы
Asakaze >>>
post #33, отправлено 6-01-2009, 20:54


Рыцарь
***

Сообщений: 107
Пол:женский

Харизма: 16

Может, сразу тексты пропишите в тегах?
И еще - не знаю, насколько реализуемо - можно выложить второй вариант, разбитый на песни


--------------------
-Что мы будем делать завтра, Рейстлин?
-То же, что и всегда, Карамон. Попытаемся захватить мир!

-Любимой быть - вот все, что я хотела!
-Стать богом - это все, что я хотел.
Скопировать выделенный текст в форму быстрого ответа +Перейти в начало страницы
Guardian of Terra >>>
post #34, отправлено 6-01-2009, 22:25


Рыцарь
***

Сообщений: 139
Откуда: Москва
Пол:мужской

Харизма: 36

Я не очень понимаю, по какой перфорации надо резать треки.
Будем надеяться, что мой вариант не очень невменяемый.
Скопировать выделенный текст в форму быстрого ответа +Перейти в начало страницы
Саруман-друг Рейстлина >>>
post #35, отправлено 6-01-2009, 22:50


Младшее Божество
*****
Модератор
Сообщений: 792
Откуда: Москва
Пол:мужской

Харизма: 350

Цитата(Asakaze @ 6-01-2009, 19:54)
Может, сразу тексты пропишите в тегах?
И еще - не знаю, насколько реализуемо - можно выложить второй вариант, разбитый на песни
*



Теги позволяют вписать мало информации. Либретто уже можно скачать с сайта.
Выложить вариант разбитый на песни технически гораздо сложнее (24 трека), поставьте Wavelab и режьте как нравитсяsmile.gif.

Добавлено:
Цитата(Тсарь @ 6-01-2009, 19:45)
ZIP там похоже потому что файл выдаётся сервером как архив. Некоторые браузеры смотрят на расширение файла (оно mp3) и поэтому после скачивания переименовывать ничего не надо. А например браузер Opera смотрит на то, с каким типом файл выдаётся сервером и автоматически переименовывает файл в ZIP.

А либретто по идее в те же теги можно запихать.
*



Я надеюсь эту "Выдачу как архив" можно заменить. Или все паковать в ZIP- МP3+либретто+картинку к примеру. Думаю,все умеют распаковать ZIP


--------------------
Ужели гений и злодейство- несовместны?
Скопировать выделенный текст в форму быстрого ответа +Перейти в начало страницы
De'Mulen >>>
post #36, отправлено 8-01-2009, 2:00


Приключенец
*

Сообщений: 17
Откуда: Москва
Пол:мужской

Харизма: 6

мне кажется самый практичный вариант это разрезать файл на треки и запихнуть их в архив вместе с картинкой, либретто и текстами.
думаю архив распаковать никому не составит труда.

Сообщение отредактировал De'Mulen - 8-01-2009, 2:01
Скопировать выделенный текст в форму быстрого ответа +Перейти в начало страницы
Саруман-друг Рейстлина >>>
post #37, отправлено 8-01-2009, 3:19


Младшее Божество
*****
Модератор
Сообщений: 792
Откуда: Москва
Пол:мужской

Харизма: 350

Про архив я так и думаю, но у меня пока не получилось это сделать. Завтра приедет человек. Но разрезать я не очень хочу...
Если делать архив то и полную и резанную туда пихать.


--------------------
Ужели гений и злодейство- несовместны?
Скопировать выделенный текст в форму быстрого ответа +Перейти в начало страницы
Guardian of Terra >>>
post #38, отправлено 8-01-2009, 4:21


Рыцарь
***

Сообщений: 139
Откуда: Москва
Пол:мужской

Харизма: 36

Полную И резанную - это как-то жестко, честно говоря.

Далеко не у всех анлим.

Самый лучший вариант - выложить два варианта.
Один - чистый один большой mp3-файл.
Второй - zip-архив, внутри которого резанная на дорожки версия с тегами, картинка-обложка и pdfка с либретто.
Скопировать выделенный текст в форму быстрого ответа +Перейти в начало страницы
Hanaya >>>
post #39, отправлено 15-01-2009, 16:42


Hanaya Kamitzure :)
****

Сообщений: 420
Откуда: Екатеринбург
Пол:женский

Харизма: 524

Ну вотsmile.gif))) Спасибо огромное за инструкцию по CUE, а то раньше все что было не разбито уничтожалось или разрезалась через редактор звука, а это долго и нудно. Теперь осталось самое сложное, залить разбитые на арии песни на плеер.
PS: А есть та же разбивка, но с музыкой, то есть где отделены слова от музыки? А то для первых 2-х 3-х раз слова слушать интересно, а потом скорее интересуют песни......


--------------------
Будете в Аду, заходите на огонек.
Скопировать выделенный текст в форму быстрого ответа +Перейти в начало страницы
Markiza >>>
post #40, отправлено 15-01-2009, 23:24


Воин
**

Сообщений: 26
Пол:женский

Харизма: 7

Тут тебе удобнее самой будет порезать... Просто засеки в каком-нибудь проигрывателе, с какого времени тебе хочется чтобы песни начинались и измени на эти значения исходный .cue файл (который на первой странице)

Кстати не для всех песен хорошо получается, музыка обрубается, товарный вид теряется wink.gif
Скопировать выделенный текст в форму быстрого ответа +Перейти в начало страницы
Guardian of Terra >>>
post #41, отправлено 17-01-2009, 1:10


Рыцарь
***

Сообщений: 139
Откуда: Москва
Пол:мужской

Харизма: 36

Hanya, у меня есть такая разбивка для первой части, но я не уверен, что она посекундно точна - не тестировал толком.

Код
TITLE "1. Тьма и Свет"
PERFORMER "Последнее испытание"
FILE "IBScene1.mp3" MP3
 TRACK 01 AUDIO
   TITLE "Вступление"
   PERFORMER "Последнее испытание"
   INDEX 01 00:00:00
 TRACK 02 AUDIO
   TITLE "Ария Рейстлина"
   PERFORMER "Последнее испытание"
   INDEX 01 00:46:00
 TRACK 03 AUDIO
   TITLE "Тайна Рейстлина"
   PERFORMER "Последнее испытание"
   INDEX 01 03:37:00
 TRACK 04 AUDIO
   TITLE "Сон Рейстлина"
   PERFORMER "Последнее испытание"
   INDEX 01 04:31:00
 TRACK 05 AUDIO
   TITLE "Пробуждение"
   PERFORMER "Последнее испытание"
   INDEX 01 06:29:00
 TRACK 06 AUDIO
   TITLE "Разговор братьев"
   PERFORMER "Последнее испытание"
   INDEX 01 06:50:00
 TRACK 07 AUDIO
   TITLE "Письмо"
   PERFORMER "Последнее испытание"
   INDEX 01 08:19:00
 TRACK 08 AUDIO
   TITLE "Ария Крисании"
   PERFORMER "Последнее испытание"
   INDEX 01 08:56:00
 TRACK 09 AUDIO
   TITLE "Встреча у Астинуса"
   PERFORMER "Последнее испытание"
   INDEX 01 10:32:00
 TRACK 10 AUDIO
   TITLE "Встреча Рейстлина с Крисанией"
   PERFORMER "Последнее испытание"
   INDEX 01 11:09:00
 TRACK 11 AUDIO
   TITLE "Тьма и Свет"
   PERFORMER "Последнее испытание"
   INDEX 01 13:57:00
 TRACK 12 AUDIO
   TITLE "Иди за мною"
   PERFORMER "Последнее испытание"
   INDEX 01 15:50:00
 TRACK 13 AUDIO
   TITLE "Разговор с Астинусом"
   PERFORMER "Последнее испытание"
   INDEX 01 16:53:00
 TRACK 14 AUDIO
   TITLE "Глаза в глаза"
   PERFORMER "Последнее испытание"
   INDEX 01 17:34:00
 TRACK 15 AUDIO
   TITLE "Роща мертвых"
   PERFORMER "Последнее испытание"
   INDEX 01 20:44:00
 TRACK 16 AUDIO
   TITLE "Карамон в Утехе"
   PERFORMER "Последнее испытание"
   INDEX 01 21:23:00
 TRACK 17 AUDIO
   TITLE "Башня высшего колдовства"
   PERFORMER "Последнее испытание"
   INDEX 01 23:16:00
 TRACK 18 AUDIO
   TITLE "Конклав Магов"
   PERFORMER "Последнее испытание"
   INDEX 01 23:38:00
 TRACK 19 AUDIO
   TITLE "Выступление Даламара"
   PERFORMER "Последнее испытание"
   INDEX 01 25:51:00
 TRACK 20 AUDIO
   TITLE "Крисания на Конклаве Магов"
   PERFORMER "Последнее испытание"
   INDEX 01 27:06:00
 TRACK 21 AUDIO
   TITLE "В град Истар"
   PERFORMER "Последнее испытание"
   INDEX 01 28:26:00


Для второй части не делал.
Скопировать выделенный текст в форму быстрого ответа +Перейти в начало страницы
eovin >>>
post #42, отправлено 24-01-2009, 22:57


Герой Копья
****

Сообщений: 227
Пол:женский

Харизма: 93
Замечаний: 1

Guardian of Terra, большое спасибо! Все получилось. biggrin.gif guitar.gif
Скопировать выделенный текст в форму быстрого ответа +Перейти в начало страницы
Hanaya >>>
post #43, отправлено 26-05-2009, 22:22


Hanaya Kamitzure :)
****

Сообщений: 420
Откуда: Екатеринбург
Пол:женский

Харизма: 524

Большое спасибо за разбивку 1 части smile.gif
Скачала 3 часть.... Большое спасибо.......
Вроде подобрала разбивку.......
Цитата
TITLE "3. Легенда о Вратах"
PERFORMER "Последнее испытание"
FILE "IBScene3.mp3" MP3
TRACK 01 AUDIO
  TITLE "Пролог1"
  PERFORMER "Последнее испытание"
  INDEX 01 00:00:00
TRACK 02 AUDIO
  TITLE "Примирение братьев"
  PERFORMER "Последнее испытание"
  INDEX 01 01:11:00
TRACK 03 AUDIO
  TITLE "Армия Чародея"
  PERFORMER "Последнее испытание"
  INDEX 01 03:05:00
TRACK 04 AUDIO
  TITLE "Пролог2"
  PERFORMER "Последнее испытание"
  INDEX 01 05:50:00
TRACK 05 AUDIO
  TITLE "Победа"
  PERFORMER "Последнее испытание"
  INDEX 01 06:29:00
TRACK 06 AUDIO
  TITLE "Пролог3"
  PERFORMER "Последнее испытание"
  INDEX 01 08:33:00
TRACK 07 AUDIO
  TITLE "Соблазнение"
  PERFORMER "Последнее испытание"
  INDEX 01 10:00:00
TRACK 08 AUDIO
  TITLE "Дуэт «О любви»"
  PERFORMER "Последнее испытание"
  INDEX 01 14:11:00
TRACK 09 AUDIO
  TITLE "Рейстлин и Каромон"
  PERFORMER "Последнее испытание"
  INDEX 01 19:08:00
TRACK 10 AUDIO
  TITLE "Колыбельная"
  PERFORMER "Последнее испытание"
  INDEX 01 19:47:00
TRACK 11 AUDIO
  TITLE "Присяга"
  PERFORMER "Последнее испытание"
  INDEX 01 22:59:00
TRACK 12 AUDIO
  TITLE "Испытание огнем"
  PERFORMER "Последнее испытание"
  INDEX 01 25:36:00


--------------------
Будете в Аду, заходите на огонек.
Скопировать выделенный текст в форму быстрого ответа +Перейти в начало страницы
Markiza >>>
post #44, отправлено 30-05-2009, 22:12


Воин
**

Сообщений: 26
Пол:женский

Харизма: 7

Hanaya, умница smile.gif
Спасибо большое.
Скопировать выделенный текст в форму быстрого ответа +Перейти в начало страницы
Ariwch >>>
post #45, отправлено 27-07-2009, 23:01


Приключенец
*

Сообщений: 3
Пол:

Харизма: нет

Hanaya, спасибо за разбивку!
Скопировать выделенный текст в форму быстрого ответа +Перейти в начало страницы
Demien
post #46, отправлено 15-01-2010, 14:43


Unregistered






Сделайте плиз для 4 части!
Скопировать выделенный текст в форму быстрого ответа +Перейти в начало страницы
katalina >>>
post #47, отправлено 17-01-2010, 22:10


Клон Дарта Вейдера
***

Сообщений: 107
Откуда: Ужгород, Украина
Пол:женский

midichlorian count: 32

Может, я и не все правильно порезала, но слушать можно))

TITLE "4. Последнее испытание"
PERFORMER "Последнее испытание"
FILE "IBScene4.mp3" MP3
TRACK 01 AUDIO
TITLE "Встреча с Такхизис"
PERFORMER "Последнее испытание"
INDEX 01 00:00:00
TRACK 02 AUDIO
TITLE "Изида под покрывалом"
PERFORMER "Последнее испытание"
INDEX 01 05:19:00
TRACK 03 AUDIO
TITLE "Кошмары"
PERFORMER "Последнее испытание"
INDEX 01 09:20:00
TRACK 04 AUDIO
TITLE "Танго со Смертью"
PERFORMER "Последнее испытание"
INDEX 01 12:17:00
TRACK 05 AUDIO
TITLE "Жертва"
PERFORMER "Последнее испытание"
INDEX 01 14:49:00
TRACK 06 AUDIO
TITLE "Отречение"
PERFORMER "Последнее испытание"
INDEX 01 18:11:00
TRACK 07 AUDIO
TITLE "Прозрение"
PERFORMER "Последнее испытание"
INDEX 01 22:20:00
TRACK 08 AUDIO
TITLE "Властелин ничего"
PERFORMER "Последнее испытание"
INDEX 01 25:10:00

Сообщение отредактировал katalina - 20-01-2010, 17:25


--------------------
It's Vader...
Скопировать выделенный текст в форму быстрого ответа +Перейти в начало страницы
Nayred >>>
post #48, отправлено 18-01-2010, 13:43


Воин
**

Сообщений: 38
Пол:мужской

Харизма: 3

Цитата(Hanaya @ 26-05-2009, 21:22)
Вроде подобрала разбивку.......
*

Спасибо, но прологов не может быть 3. Он только один бывает, в начале. Правда, как правильно называются эти тексты рассказчика, я не знаю. sad.gif
Может, назвать эти части "Битва за Заман" и "Объяснение мага" (или "Цель мага", "Просьба мага"...)

Сообщение отредактировал Nayred - 18-01-2010, 13:55
Скопировать выделенный текст в форму быстрого ответа +Перейти в начало страницы
Ariwch >>>
post #49, отправлено 13-06-2010, 16:11


Приключенец
*

Сообщений: 3
Пол:

Харизма: нет

CUE для альтернативного финала. Как видно, для единообразия файл с альтернативным финалом переименован в IBScene5.mp3 (если этого не делать, то после слова FILE в кавычках надо указать название своего файла).

Код
TITLE "5. Альтернативный финал"
PERFORMER "Последнее испытание"
FILE "IBScene5.mp3" MP3
TRACK 01 AUDIO
 TITLE "Дай время мне, чтобы предотвратить беду"
 PERFORMER "Последнее испытание"
 INDEX 01 00:00:00
TRACK 02 AUDIO
 TITLE "Клинок ведет меня"
 PERFORMER "Последнее испытание"
 INDEX 01 00:54:00
TRACK 03 AUDIO
 TITLE "Рейстлин отступает (Астинус)"
 PERFORMER "Последнее испытание"
 INDEX 01 03:30:00
TRACK 04 AUDIO
 TITLE "Ни каяться, ни плакаться не буду..."
 PERFORMER "Последнее испытание"
 INDEX 01 05:15:00
TRACK 05 AUDIO
 TITLE "Минуло двадцать лет (Астинус)"
 PERFORMER "Последнее испытание"
 INDEX 01 08:35:50
TRACK 06 AUDIO
 TITLE "Любимой быть, вот все, что я хотела, гордыня, это все чем я владел"
 PERFORMER "Последнее испытание"
 INDEX 01 09:43:00
Скопировать выделенный текст в форму быстрого ответа +Перейти в начало страницы
1 чел. читают эту тему (1 Гостей и 0 Скрытых Пользователей)
0 Пользователей:

Страницы (3) :  1 2 3  > [Все]
Ответить | Опции | Новая тема
 



Рейтинг@Mail.ru
Текстовая версия Сейчас: 22-04-2019, 22:43
© 2002-2011. Автор сайта: Тсарь. Директор форума: Alaric.