Здравствуйте Гость ( Вход | Регистрация )

Ответить | Новая тема | Создать опрос

> Режем запись на арии, CUE

Guardian of Terra >>>
post #41, отправлено 17-01-2009, 1:10


Рыцарь
***

Сообщений: 139
Откуда: Москва
Пол:мужской

Харизма: 36

Hanya, у меня есть такая разбивка для первой части, но я не уверен, что она посекундно точна - не тестировал толком.

Код
TITLE "1. Тьма и Свет"
PERFORMER "Последнее испытание"
FILE "IBScene1.mp3" MP3
 TRACK 01 AUDIO
   TITLE "Вступление"
   PERFORMER "Последнее испытание"
   INDEX 01 00:00:00
 TRACK 02 AUDIO
   TITLE "Ария Рейстлина"
   PERFORMER "Последнее испытание"
   INDEX 01 00:46:00
 TRACK 03 AUDIO
   TITLE "Тайна Рейстлина"
   PERFORMER "Последнее испытание"
   INDEX 01 03:37:00
 TRACK 04 AUDIO
   TITLE "Сон Рейстлина"
   PERFORMER "Последнее испытание"
   INDEX 01 04:31:00
 TRACK 05 AUDIO
   TITLE "Пробуждение"
   PERFORMER "Последнее испытание"
   INDEX 01 06:29:00
 TRACK 06 AUDIO
   TITLE "Разговор братьев"
   PERFORMER "Последнее испытание"
   INDEX 01 06:50:00
 TRACK 07 AUDIO
   TITLE "Письмо"
   PERFORMER "Последнее испытание"
   INDEX 01 08:19:00
 TRACK 08 AUDIO
   TITLE "Ария Крисании"
   PERFORMER "Последнее испытание"
   INDEX 01 08:56:00
 TRACK 09 AUDIO
   TITLE "Встреча у Астинуса"
   PERFORMER "Последнее испытание"
   INDEX 01 10:32:00
 TRACK 10 AUDIO
   TITLE "Встреча Рейстлина с Крисанией"
   PERFORMER "Последнее испытание"
   INDEX 01 11:09:00
 TRACK 11 AUDIO
   TITLE "Тьма и Свет"
   PERFORMER "Последнее испытание"
   INDEX 01 13:57:00
 TRACK 12 AUDIO
   TITLE "Иди за мною"
   PERFORMER "Последнее испытание"
   INDEX 01 15:50:00
 TRACK 13 AUDIO
   TITLE "Разговор с Астинусом"
   PERFORMER "Последнее испытание"
   INDEX 01 16:53:00
 TRACK 14 AUDIO
   TITLE "Глаза в глаза"
   PERFORMER "Последнее испытание"
   INDEX 01 17:34:00
 TRACK 15 AUDIO
   TITLE "Роща мертвых"
   PERFORMER "Последнее испытание"
   INDEX 01 20:44:00
 TRACK 16 AUDIO
   TITLE "Карамон в Утехе"
   PERFORMER "Последнее испытание"
   INDEX 01 21:23:00
 TRACK 17 AUDIO
   TITLE "Башня высшего колдовства"
   PERFORMER "Последнее испытание"
   INDEX 01 23:16:00
 TRACK 18 AUDIO
   TITLE "Конклав Магов"
   PERFORMER "Последнее испытание"
   INDEX 01 23:38:00
 TRACK 19 AUDIO
   TITLE "Выступление Даламара"
   PERFORMER "Последнее испытание"
   INDEX 01 25:51:00
 TRACK 20 AUDIO
   TITLE "Крисания на Конклаве Магов"
   PERFORMER "Последнее испытание"
   INDEX 01 27:06:00
 TRACK 21 AUDIO
   TITLE "В град Истар"
   PERFORMER "Последнее испытание"
   INDEX 01 28:26:00


Для второй части не делал.
Скопировать выделенный текст в форму быстрого ответа +Перейти в начало страницы
eovin >>>
post #42, отправлено 24-01-2009, 22:57


Герой Копья
****

Сообщений: 227
Пол:женский

Харизма: 93
Замечаний: 1

Guardian of Terra, большое спасибо! Все получилось. biggrin.gif guitar.gif
Скопировать выделенный текст в форму быстрого ответа +Перейти в начало страницы
Hanaya >>>
post #43, отправлено 26-05-2009, 22:22


Hanaya Kamitzure :)
****

Сообщений: 420
Откуда: Екатеринбург
Пол:женский

Харизма: 524

Большое спасибо за разбивку 1 части smile.gif
Скачала 3 часть.... Большое спасибо.......
Вроде подобрала разбивку.......
Цитата
TITLE "3. Легенда о Вратах"
PERFORMER "Последнее испытание"
FILE "IBScene3.mp3" MP3
TRACK 01 AUDIO
  TITLE "Пролог1"
  PERFORMER "Последнее испытание"
  INDEX 01 00:00:00
TRACK 02 AUDIO
  TITLE "Примирение братьев"
  PERFORMER "Последнее испытание"
  INDEX 01 01:11:00
TRACK 03 AUDIO
  TITLE "Армия Чародея"
  PERFORMER "Последнее испытание"
  INDEX 01 03:05:00
TRACK 04 AUDIO
  TITLE "Пролог2"
  PERFORMER "Последнее испытание"
  INDEX 01 05:50:00
TRACK 05 AUDIO
  TITLE "Победа"
  PERFORMER "Последнее испытание"
  INDEX 01 06:29:00
TRACK 06 AUDIO
  TITLE "Пролог3"
  PERFORMER "Последнее испытание"
  INDEX 01 08:33:00
TRACK 07 AUDIO
  TITLE "Соблазнение"
  PERFORMER "Последнее испытание"
  INDEX 01 10:00:00
TRACK 08 AUDIO
  TITLE "Дуэт «О любви»"
  PERFORMER "Последнее испытание"
  INDEX 01 14:11:00
TRACK 09 AUDIO
  TITLE "Рейстлин и Каромон"
  PERFORMER "Последнее испытание"
  INDEX 01 19:08:00
TRACK 10 AUDIO
  TITLE "Колыбельная"
  PERFORMER "Последнее испытание"
  INDEX 01 19:47:00
TRACK 11 AUDIO
  TITLE "Присяга"
  PERFORMER "Последнее испытание"
  INDEX 01 22:59:00
TRACK 12 AUDIO
  TITLE "Испытание огнем"
  PERFORMER "Последнее испытание"
  INDEX 01 25:36:00


--------------------
Будете в Аду, заходите на огонек.
Скопировать выделенный текст в форму быстрого ответа +Перейти в начало страницы
Markiza >>>
post #44, отправлено 30-05-2009, 22:12


Воин
**

Сообщений: 26
Пол:женский

Харизма: 7

Hanaya, умница smile.gif
Спасибо большое.
Скопировать выделенный текст в форму быстрого ответа +Перейти в начало страницы
Ariwch >>>
post #45, отправлено 27-07-2009, 23:01


Приключенец
*

Сообщений: 3
Пол:

Харизма: нет

Hanaya, спасибо за разбивку!
Скопировать выделенный текст в форму быстрого ответа +Перейти в начало страницы
Demien
post #46, отправлено 15-01-2010, 14:43


Unregistered






Сделайте плиз для 4 части!
Скопировать выделенный текст в форму быстрого ответа +Перейти в начало страницы
katalina >>>
post #47, отправлено 17-01-2010, 22:10


Клон Дарта Вейдера
***

Сообщений: 107
Откуда: Ужгород, Украина
Пол:женский

midichlorian count: 32

Может, я и не все правильно порезала, но слушать можно))

TITLE "4. Последнее испытание"
PERFORMER "Последнее испытание"
FILE "IBScene4.mp3" MP3
TRACK 01 AUDIO
TITLE "Встреча с Такхизис"
PERFORMER "Последнее испытание"
INDEX 01 00:00:00
TRACK 02 AUDIO
TITLE "Изида под покрывалом"
PERFORMER "Последнее испытание"
INDEX 01 05:19:00
TRACK 03 AUDIO
TITLE "Кошмары"
PERFORMER "Последнее испытание"
INDEX 01 09:20:00
TRACK 04 AUDIO
TITLE "Танго со Смертью"
PERFORMER "Последнее испытание"
INDEX 01 12:17:00
TRACK 05 AUDIO
TITLE "Жертва"
PERFORMER "Последнее испытание"
INDEX 01 14:49:00
TRACK 06 AUDIO
TITLE "Отречение"
PERFORMER "Последнее испытание"
INDEX 01 18:11:00
TRACK 07 AUDIO
TITLE "Прозрение"
PERFORMER "Последнее испытание"
INDEX 01 22:20:00
TRACK 08 AUDIO
TITLE "Властелин ничего"
PERFORMER "Последнее испытание"
INDEX 01 25:10:00

Сообщение отредактировал katalina - 20-01-2010, 17:25


--------------------
It's Vader...
Скопировать выделенный текст в форму быстрого ответа +Перейти в начало страницы
Nayred >>>
post #48, отправлено 18-01-2010, 13:43


Воин
**

Сообщений: 38
Пол:мужской

Харизма: 3

Цитата(Hanaya @ 26-05-2009, 21:22)
Вроде подобрала разбивку.......
*

Спасибо, но прологов не может быть 3. Он только один бывает, в начале. Правда, как правильно называются эти тексты рассказчика, я не знаю. sad.gif
Может, назвать эти части "Битва за Заман" и "Объяснение мага" (или "Цель мага", "Просьба мага"...)

Сообщение отредактировал Nayred - 18-01-2010, 13:55
Скопировать выделенный текст в форму быстрого ответа +Перейти в начало страницы
Ariwch >>>
post #49, отправлено 13-06-2010, 16:11


Приключенец
*

Сообщений: 3
Пол:

Харизма: нет

CUE для альтернативного финала. Как видно, для единообразия файл с альтернативным финалом переименован в IBScene5.mp3 (если этого не делать, то после слова FILE в кавычках надо указать название своего файла).

Код
TITLE "5. Альтернативный финал"
PERFORMER "Последнее испытание"
FILE "IBScene5.mp3" MP3
TRACK 01 AUDIO
 TITLE "Дай время мне, чтобы предотвратить беду"
 PERFORMER "Последнее испытание"
 INDEX 01 00:00:00
TRACK 02 AUDIO
 TITLE "Клинок ведет меня"
 PERFORMER "Последнее испытание"
 INDEX 01 00:54:00
TRACK 03 AUDIO
 TITLE "Рейстлин отступает (Астинус)"
 PERFORMER "Последнее испытание"
 INDEX 01 03:30:00
TRACK 04 AUDIO
 TITLE "Ни каяться, ни плакаться не буду..."
 PERFORMER "Последнее испытание"
 INDEX 01 05:15:00
TRACK 05 AUDIO
 TITLE "Минуло двадцать лет (Астинус)"
 PERFORMER "Последнее испытание"
 INDEX 01 08:35:50
TRACK 06 AUDIO
 TITLE "Любимой быть, вот все, что я хотела, гордыня, это все чем я владел"
 PERFORMER "Последнее испытание"
 INDEX 01 09:43:00
Скопировать выделенный текст в форму быстрого ответа +Перейти в начало страницы
1 чел. читают эту тему (1 Гостей и 0 Скрытых Пользователей)
0 Пользователей:

Ответить | Опции | Новая тема
 



Рейтинг@Mail.ru
Текстовая версия Сейчас: 22-03-2019, 20:02
© 2002-2011. Автор сайта: Тсарь. Директор форума: Alaric.